<?xml version="1.0" standalone="no"?>
<!DOCTYPE svg PUBLIC "-//W3C//DTD SVG 1.1//EN" "http://www.w3.org/Graphics/SVG/1.1/DTD/svg11.dtd" >
<svg xmlns="http://www.w3.org/2000/svg" xmlns:xlink="http://www.w3.org/1999/xlink" version="1.1">
<metadata></metadata>
<defs>
<font id="gunshipregular" horiz-adv-x="949" >
<font-face units-per-em="1000" ascent="800" descent="-200" />
<missing-glyph horiz-adv-x="486" />
<glyph horiz-adv-x="0" />
<glyph unicode="&#xd;" horiz-adv-x="500" />
<glyph unicode=" "  horiz-adv-x="486" />
<glyph unicode="&#x09;" horiz-adv-x="486" />
<glyph unicode="&#xa0;" horiz-adv-x="486" />
<glyph unicode="!" horiz-adv-x="314" d="M51 220v360h212v-360h-212zM51 0v143h212v-143h-212z" />
<glyph unicode="&#x22;" horiz-adv-x="580" d="M318 575h211v-143l-115 -91h-96v234zM51 575h211v-143l-115 -91h-96v234z" />
<glyph unicode="#" horiz-adv-x="961" d="M385 0v97h188v-98h221v98h116v125h-116v119h116v125h-116v108h-221v-108h-188v109h-221v-109h-113v-125h113v-119h-113v-125h113v-97h221zM385 341h188v-119h-188v119z" />
<glyph unicode="$" horiz-adv-x="948" d="M502 -105h122v105h122q31 0 58.5 12t48 32.5t32.5 48t12 58.5v53q0 31 -12 58.5t-32.5 47.5t-48 32t-58.5 12h-122v78h273v143h-273v112h-122v-112h-56v112h-122v-112h-122q-31 0 -58.5 -12t-48 -32.5t-32.5 -48t-12 -58.5v-53q0 -31 12 -58.5t32.5 -48t48 -32.5 t58.5 -12h122v-77h-273v-143h273v-105h122v105h56v-105zM446 432h56v-78h-56v78zM446 220h56v-77h-56v77zM268 432h56v-78h-56v78zM680 220v-77h-56v77h56z" />
<glyph unicode="%" horiz-adv-x="1205" d="M374 575q18 0 35 -7.5t29.5 -19.5t20 -28.5t7.5 -34.5v-164q0 -19 -7.5 -35.5t-20 -28.5t-29.5 -19t-35 -7h-232q-18 0 -34.5 7t-29 19t-20 28.5t-7.5 35.5v164q0 38 26.5 64t64.5 26h232zM328 324v158h-140v-158h140zM1062 345q42 -1 67 -27.5t25 -62.5v-164 q0 -38 -26.5 -64.5t-65.5 -26.5h-232q-38 0 -64.5 26.5t-26.5 64.5v164q0 18 7 34.5t19.5 29t29 19.5t35.5 7h232zM1016 93v158h-140v-158h140zM663 575h204l-330 -575h-201z" />
<glyph unicode="&#x26;" horiz-adv-x="1038" d="M987 220v133h-719v79h570v143h-617q-32 0 -62.5 -11t-54.5 -31t-38.5 -47.5t-14.5 -60.5v-56q0 -20 10 -43t29 -39q-22 -16 -30.5 -39t-8.5 -43v-55q0 -33 14.5 -60.5t38.5 -47.5t54.5 -31t62.5 -11h670v220h96zM673 143h-405v77h405v-77z" />
<glyph unicode="'" horiz-adv-x="314" d="M51 575h212v-143l-115 -91h-97v234z" />
<glyph unicode="(" horiz-adv-x="481" d="M269 60h161v-143h-228q-31 0 -58.5 12t-48 32.5t-32.5 48t-12 58.5v437q0 31 12 58.5t32.5 48t48 32.5t58.5 12h228v-143h-161v-453z" />
<glyph unicode=")" horiz-adv-x="481" d="M211 60h-161v-143h228q31 0 58.5 12t48 32.5t32.5 48t12 58.5v437q0 31 -12 58.5t-32.5 48t-48 32.5t-58.5 12h-228v-143h161v-453z" />
<glyph unicode="*" horiz-adv-x="319" d="M268 653h-217v-161h217v161z" />
<glyph unicode="+" horiz-adv-x="567" d="M216 54h134v166h166v134h-166v165h-134v-165h-165v-134h165v-166z" />
<glyph unicode="," horiz-adv-x="314" d="M51 143h212v-143l-115 -91h-97v234z" />
<glyph unicode="-" horiz-adv-x="549" d="M498 220v134h-447v-134h447z" />
<glyph unicode="." horiz-adv-x="314" d="M51 0v143h212v-143h-212z" />
<glyph unicode="/" horiz-adv-x="611" d="M359 575h226l-343 -575h-216z" />
<glyph unicode="0" d="M203 575q-32 0 -59.5 -12t-48 -32t-32.5 -48t-12 -59v-273q0 -32 12 -58.5t32.5 -46t48 -31.5t59.5 -15h534q33 0 62 12t51 32t35 47.5t13 59.5v273q0 30 -14 57.5t-36.5 48t-50 33t-53.5 12.5h-541zM448 432l-166 -289h-13v289h179zM500 143l166 289h13v-289h-179z" />
<glyph unicode="1" horiz-adv-x="454" d="M261 575q31 0 57 -12t45 -32.5t29.5 -48t10.5 -58.5v-424h-220v432h-132v143h210z" />
<glyph unicode="2" horiz-adv-x="948" d="M268 220v-77h629v-143h-846v204q0 31 12 58.5t32.5 47.5t48 32t58.5 12h478v78h-629v143h695q31 0 58.5 -12t48 -32.5t32.5 -48t12 -58.5v-53q0 -31 -12 -58.5t-32.5 -48t-48 -32.5t-58.5 -12h-478z" />
<glyph unicode="3" d="M98 353v-133h583v-77h-630v-143h677q32 0 62.5 11t54.5 31t38.5 47.5t14.5 60.5v55q0 20 -8.5 43t-30.5 39q19 16 29 39t10 43v56q0 33 -14.5 60.5t-38.5 47.5t-54.5 31t-62.5 11h-677v-143h630v-79h-583z" />
<glyph unicode="4" horiz-adv-x="948" d="M680 575v-235h-411v235h-218v-369h629v-206h217v575h-217z" />
<glyph unicode="5" horiz-adv-x="948" d="M680 220v-77h-629v-143h695q31 0 58.5 12t48 32.5t32.5 48t12 58.5v53q0 31 -12 58.5t-32.5 47.5t-48 32t-58.5 12h-478v78h629v143h-846v-355h629z" />
<glyph unicode="6" horiz-adv-x="948" d="M51 151q0 -29 10.5 -55t28.5 -46.5t42.5 -33.5t52.5 -16h561q31 0 58.5 12t48 32.5t32.5 48t12 58.5v53q0 31 -12 58.5t-32.5 47.5t-48 32t-58.5 12h-478v78h629v143h-695q-31 0 -58.5 -12t-48 -32.5t-32.5 -48t-12 -58.5v-273zM680 220v-77h-412v77h412z" />
<glyph unicode="7" horiz-adv-x="937" d="M51 575h835v-100l-465 -475h-253l419 432h-536v143z" />
<glyph unicode="8" horiz-adv-x="950" d="M51 425v-56q0 -20 10 -43t29 -39q-22 -16 -30.5 -39t-8.5 -43v-55q0 -33 14.5 -60.5t38.5 -47.5t54.5 -31t62.5 -11h508q32 0 62.5 11t54.5 31t38.5 47.5t14.5 60.5v55q0 20 -8.5 43t-30.5 39q19 16 29 39t10 43v56q0 33 -14.5 60.5t-38.5 47.5t-54.5 31t-62.5 11h-508 q-32 0 -62.5 -11t-54.5 -31t-38.5 -47.5t-14.5 -60.5zM268 353v79h414v-79h-414zM268 220h414v-77h-414v77z" />
<glyph unicode="9" horiz-adv-x="948" d="M897 424q0 29 -10.5 55t-28.5 46.5t-42.5 33.5t-52.5 16h-561q-31 0 -58.5 -12t-48 -32.5t-32.5 -48t-12 -58.5v-53q0 -31 12 -58.5t32.5 -47.5t48 -32t58.5 -12h478v-78h-629v-143h695q31 0 58.5 12t48 32.5t32.5 48t12 58.5v273zM268 355v77h412v-77h-412z" />
<glyph unicode=":" horiz-adv-x="315" d="M264 0v143h-212v-143h212zM51 350h213v143h-213v-143z" />
<glyph unicode=";" horiz-adv-x="315" d="M51 493h213v-143h-213v143zM51 143h212v-143l-115 -91h-97v234z" />
<glyph unicode="&#x3c;" horiz-adv-x="601" d="M26 287l297 -287h252l-297 287l297 288h-252z" />
<glyph unicode="=" horiz-adv-x="579" d="M528 327v134h-477v-134h477zM528 125v134h-477v-134h477z" />
<glyph unicode="&#x3e;" horiz-adv-x="601" d="M575 287l-297 -287h-252l297 287l-297 288h252z" />
<glyph unicode="?" horiz-adv-x="948" d="M196 220q0 31 12 56t32.5 42t48 26.5t58.5 9.5h333v78h-629v143h695q31 0 58.5 -12t48 -32.5t32.5 -48t12 -58.5v-53q0 -31 -12 -58.5t-32.5 -48t-48 -32.5t-58.5 -12h-550zM196 0v143h212v-143h-212z" />
<glyph unicode="@" horiz-adv-x="1108" d="M426 460q-38 0 -64.5 -26t-26.5 -64v-164q0 -19 7.5 -35.5t20 -28.5t29 -19t34.5 -7h480q31 0 58.5 12t48 32.5t32.5 48t12 58.5v238q0 31 -12 58.5t-32.5 48t-48 32.5t-58.5 12h-704q-31 0 -58.5 -12t-48 -32.5t-32.5 -48t-12 -58.5v-437q0 -31 12 -58.5t32.5 -48 t48 -32.5t58.5 -12h854v143h-790v453h576v-302h-70v159q0 18 -7.5 34.5t-20 28.5t-29.5 19.5t-35 7.5h-254zM483 211v154h140v-154h-140z" />
<glyph unicode="A" d="M681 306h-290v-134h290v-172h217v430q0 30 -12.5 56.5t-33 46t-47.5 31t-57 11.5h-546q-31 0 -58.5 -12t-48 -32.5t-32.5 -48t-12 -58.5v-424h218v432h412v-126z" />
<glyph unicode="B" d="M51 353v-353h677q32 0 62.5 11t54.5 31t38.5 47.5t14.5 60.5v53q0 20 -9.5 44t-31.5 40q19 16 30 40t11 44v54q0 33 -14.5 60.5t-38.5 47.5t-54.5 31t-62.5 11h-677v-143h630v-79h-630zM269 220h412v-77h-412v77z" />
<glyph unicode="C" horiz-adv-x="948" d="M269 143h628v-143h-695q-31 0 -58.5 12t-48 32.5t-32.5 48t-12 58.5v273q0 31 12 58.5t32.5 48t48 32.5t58.5 12h695v-143h-628v-289z" />
<glyph unicode="D" horiz-adv-x="950" d="M51 0h697q30 0 57.5 12.5t48.5 33.5t33 48t12 57v273q0 31 -12 58.5t-33 48t-48.5 32.5t-57.5 12h-697v-143h629v-289h-410v198h-219v-341z" />
<glyph unicode="E" d="M853 220v134h-462v-134h462zM269 143v289h628v143h-695q-31 0 -58.5 -12t-48 -32.5t-32.5 -48t-12 -58.5v-273q0 -31 12 -58.5t32.5 -48t48 -32.5t58.5 -12h695v143h-628z" />
<glyph unicode="F" d="M853 220v134h-462v-134h462zM269 0v432h628v143h-695q-31 0 -58.5 -12t-48 -32.5t-32.5 -48t-12 -58.5v-424h218z" />
<glyph unicode="G" horiz-adv-x="948" d="M269 143v289h628v143h-695q-31 0 -58.5 -12t-48 -32.5t-32.5 -48t-12 -58.5v-273q0 -31 12 -58.5t32.5 -48t48 -32.5t58.5 -12h541q25 0 52.5 11t50 29t37 42t14.5 50v165h-218v-154h-410z" />
<glyph unicode="H" horiz-adv-x="948" d="M680 575v-235h-411v235h-218v-575h218v206h411v-206h217v575h-217z" />
<glyph unicode="I" horiz-adv-x="943" d="M50 0h841v143h-311v289h312v143h-841v-143h311v-289h-312v-143z" />
<glyph unicode="J" d="M679 143h-410v149h-218v-141q0 -32 12 -59.5t32.5 -47.5t48 -32t59.5 -12h541q31 0 59 12t49 32t33.5 47.5t12.5 59.5v424h-847v-143h628v-289z" />
<glyph unicode="K" horiz-adv-x="923" d="M269 575h-218v-575h218v217l345 -217h283l-426 287l426 288h-283l-345 -224v224z" />
<glyph unicode="L" horiz-adv-x="948" d="M269 143h628v-143h-846v575h218v-432z" />
<glyph unicode="M" horiz-adv-x="1169" d="M899 432h-207v-432h-218v432h-207v-432h-217v430q0 30 12.5 56.5t33 46t47.5 31t57 11.5h917v-575h-218v432z" />
<glyph unicode="N" d="M269 432h412v-432h217v430q0 30 -12.5 56.5t-33 46t-47.5 31t-57 11.5h-697v-575h218v432z" />
<glyph unicode="O" d="M203 575q-32 0 -59.5 -12t-48 -32t-32.5 -48t-12 -59v-273q0 -32 12 -59.5t32.5 -47.5t48 -32t59.5 -12h541q31 0 59 12t49 32t33.5 47.5t12.5 59.5v273q0 30 -12.5 57.5t-33.5 48t-49 33t-59 12.5h-541zM679 143h-410v289h410v-289z" />
<glyph unicode="P" d="M681 340h-290v-135h337q30 0 60.5 12t55 32t39.5 47.5t15 59.5v69q0 33 -14.5 60.5t-38.5 47.5t-54.5 31t-62.5 11h-677v-575h218v432h412v-92z" />
<glyph unicode="Q" d="M269 143h288v-143h-353q-31 0 -59 12t-49 32t-33.5 47.5t-12.5 59.5v273q0 30 12.5 56.5t33.5 47t49 33t59 14.5h541q31 0 59 -12t48.5 -32t32.5 -48t12 -59v-513h-218v521h-410v-289z" />
<glyph unicode="R" d="M681 340h-247v-340h455l-159 205q28 0 58 12.5t54.5 33t40 48t15.5 57.5v69q0 33 -14.5 60.5t-38.5 47.5t-54.5 31t-62.5 11h-677v-575h218v432h412v-92z" />
<glyph unicode="S" horiz-adv-x="948" d="M680 220v-77h-629v-143h695q31 0 58.5 12t48 32.5t32.5 48t12 58.5v53q0 31 -12 58.5t-32.5 47.5t-48 32t-58.5 12h-478v78h629v143h-695q-31 0 -58.5 -12t-48 -32.5t-32.5 -48t-12 -58.5v-53q0 -31 12 -58.5t32.5 -48t48 -32.5t58.5 -12h478z" />
<glyph unicode="T" horiz-adv-x="943" d="M892 575h-841v-143h312v-432h218v432h311v143z" />
<glyph unicode="U" d="M679 143h-410v432h-218v-424q0 -32 12 -59.5t32.5 -47.5t48 -32t59.5 -12h695v575h-219v-432z" />
<glyph unicode="V" horiz-adv-x="927" d="M901 575l-341 -575h-193l-341 575h229l208 -363l209 363h229z" />
<glyph unicode="W" horiz-adv-x="1169" d="M899 143h-207v432h-218v-432h-207v432h-217v-430q0 -30 12.5 -56.5t33 -46t47.5 -31t57 -11.5h917v575h-218v-432z" />
<glyph unicode="X" horiz-adv-x="898" d="M278 575h-252l297 -288l-297 -287h252l171 165l171 -165h252l-297 287l297 288h-252l-171 -166z" />
<glyph unicode="Y" horiz-adv-x="948" d="M680 575v-221h-411v221h-218v-204q0 -31 12 -58.5t32.5 -48t48 -32.5t58.5 -12h478v-77h-629v-143h695q31 0 58.5 12t48 32.5t32.5 48t12 58.5v424h-217z" />
<glyph unicode="Z" horiz-adv-x="937" d="M51 575h835v-99l-473 -333h473v-143h-835v99l473 333h-473v143z" />
<glyph unicode="[" horiz-adv-x="481" d="M269 60h161v-143h-379v739h379v-143h-161v-453z" />
<glyph unicode="\" horiz-adv-x="611" d="M252 575h-226l343 -575h216z" />
<glyph unicode="]" horiz-adv-x="481" d="M211 60h-161v-143h379v739h-379v-143h161v-453z" />
<glyph unicode="^" d="M269 143h288v-143h-353q-31 0 -59 12t-49 32t-33.5 47.5t-12.5 59.5v273q0 30 12.5 56.5t33.5 47t49 33t59 14.5h693v-575h-218v432h-410v-289z" />
<glyph unicode="_" horiz-adv-x="690" d="M51 86v-86h588v86h-588z" />
<glyph unicode="`" horiz-adv-x="299" d="M184 652h-158l102 -105h145z" />
<glyph unicode="a" d="M269 306v126h412v-126h-412zM269 172h412v-172h217v430q0 30 -12.5 56.5t-33 46t-47.5 31t-57 11.5h-546q-31 0 -58.5 -12t-48 -32.5t-32.5 -48t-12 -58.5v-424h218v172z" />
<glyph unicode="b" d="M728 0q32 0 62.5 11t54.5 31t38.5 47.5t14.5 60.5v53q0 20 -9.5 44t-31.5 40q19 16 30 40t11 44v54q0 33 -14.5 60.5t-38.5 47.5t-54.5 31t-62.5 11h-677v-575h677zM269 353v79h412v-79h-412zM269 220h412v-77h-412v77z" />
<glyph unicode="c" horiz-adv-x="948" d="M269 143h628v-143h-695q-31 0 -58.5 12t-48 32.5t-32.5 48t-12 58.5v273q0 31 12 58.5t32.5 48t48 32.5t58.5 12h695v-143h-628v-289z" />
<glyph unicode="d" horiz-adv-x="950" d="M748 0q30 0 57.5 12.5t48.5 33.5t33 48t12 57v273q0 31 -12 58.5t-33 48t-48.5 32.5t-57.5 12h-697v-575h697zM680 143h-410v289h410v-289z" />
<glyph unicode="e" horiz-adv-x="948" d="M269 143v77h584v134h-584v78h628v143h-695q-31 0 -58.5 -12t-48 -32.5t-32.5 -48t-12 -58.5v-273q0 -31 12 -58.5t32.5 -48t48 -32.5t58.5 -12h695v143h-628z" />
<glyph unicode="f" horiz-adv-x="948" d="M269 0v220h584v134h-584v78h628v143h-695q-31 0 -58.5 -12t-48 -32.5t-32.5 -48t-12 -58.5v-424h218z" />
<glyph unicode="g" horiz-adv-x="948" d="M680 220h-289v134h355q31 0 58.5 -12t48 -32t32.5 -47.5t12 -58.5v-53q0 -31 -12 -58.5t-32.5 -48t-48 -32.5t-58.5 -12h-561v1q-28 3 -52.5 16t-42.5 33t-28.5 46t-10.5 55v273q0 31 12 58.5t32.5 48t48 32.5t58.5 12h695v-143h-629v-289h412v77z" />
<glyph unicode="h" horiz-adv-x="948" d="M680 575v-235h-411v235h-218v-575h218v206h411v-206h217v575h-217z" />
<glyph unicode="i" horiz-adv-x="321" d="M270 0h-219v575h219v-575z" />
<glyph unicode="j" d="M679 143h-410v149h-218v-141q0 -32 12 -59.5t32.5 -47.5t48 -32t59.5 -12h541q31 0 59 12t49 32t33.5 47.5t12.5 59.5v424h-219v-432z" />
<glyph unicode="k" horiz-adv-x="923" d="M269 575h-218v-575h218v217h151l225 -217h252l-297 287l297 288h-252l-231 -224h-145v224z" />
<glyph unicode="l" horiz-adv-x="948" d="M269 143h628v-143h-695q-31 0 -58.5 12t-48 32.5t-32.5 48t-12 58.5v424h218v-432z" />
<glyph unicode="m" horiz-adv-x="1169" d="M269 432h207v-432h218v432h207v-432h217v430q0 30 -12.5 56.5t-33 46t-47.5 31t-57 11.5h-917v-575h218v432z" />
<glyph unicode="n" d="M269 432h412v-432h217v430q0 30 -12.5 56.5t-33 46t-47.5 31t-57 11.5h-697v-575h218v432z" />
<glyph unicode="o" d="M203 575q-32 0 -59.5 -12t-48 -32t-32.5 -48t-12 -59v-273q0 -32 12 -59.5t32.5 -47.5t48 -32t59.5 -12h541q31 0 59 12t49 32t33.5 47.5t12.5 59.5v273q0 30 -12.5 57.5t-33.5 48t-49 33t-59 12.5h-541zM679 143h-410v289h410v-289z" />
<glyph unicode="p" d="M681 340h-412v92h412v-92zM269 205h459q30 0 60.5 12t55 32t39.5 47.5t15 59.5v69q0 33 -14.5 60.5t-38.5 47.5t-54.5 31t-62.5 11h-677v-575h218v205z" />
<glyph unicode="q" d="M269 143h288v-232h-133l-42 40v49h-178q-31 0 -59 12t-49 32t-33.5 47.5t-12.5 59.5v273q0 30 12.5 57t33.5 48t49 33.5t59 12.5h541q31 0 59 -12t48.5 -32t32.5 -48t12 -59v-273q0 -32 -12 -59.5t-32.5 -47.5t-48.5 -32t-59 -12h-66v432h-410v-289z" />
<glyph unicode="r" d="M681 340h-284l258 -340h234l-159 205q28 0 58 12.5t54.5 33t40 48t15.5 57.5v69q0 33 -14.5 60.5t-38.5 47.5t-54.5 31t-62.5 11h-677v-575h218v432h412v-92z" />
<glyph unicode="s" horiz-adv-x="948" d="M680 220v-77h-629v-143h695q31 0 58.5 12t48 32.5t32.5 48t12 58.5v53q0 31 -12 58.5t-32.5 47.5t-48 32t-58.5 12h-478v78h629v143h-695q-31 0 -58.5 -12t-48 -32.5t-32.5 -48t-12 -58.5v-53q0 -31 12 -58.5t32.5 -48t48 -32.5t58.5 -12h478z" />
<glyph unicode="t" horiz-adv-x="943" d="M892 575h-841v-143h312v-432h218v432h311v143z" />
<glyph unicode="u" d="M679 143h-410v432h-218v-424q0 -32 12 -59.5t32.5 -47.5t48 -32t59.5 -12h541q31 0 59 12t49 32t33.5 47.5t12.5 59.5v424h-219v-432z" />
<glyph unicode="v" horiz-adv-x="927" d="M901 575l-341 -575h-193l-341 575h229l208 -363l209 363h229z" />
<glyph unicode="w" horiz-adv-x="1169" d="M269 143h207v432h218v-432h207v432h217v-430q0 -30 -12.5 -56.5t-33 -46t-47.5 -31t-57 -11.5h-917v575h218v-432z" />
<glyph unicode="x" horiz-adv-x="898" d="M278 575h-252l297 -288l-297 -287h252l171 165l171 -165h252l-297 287l297 288h-252l-171 -166z" />
<glyph unicode="y" d="M679 349h-410v226h-218v-218q0 -32 12 -59.5t32.5 -47.5t48 -32t59.5 -12h163v-206h218v206h160q31 0 59 12t49 32t33.5 47.5t12.5 59.5v218h-219v-226z" />
<glyph unicode="z" horiz-adv-x="937" d="M51 575h835v-99l-473 -333h473v-143h-835v99l473 333h-473v143z" />
<glyph unicode="{" horiz-adv-x="948" d="M268 220h289v134h-355q-31 0 -58.5 -12t-48 -32t-32.5 -47.5t-12 -58.5v-53q0 -31 12 -57.5t32.5 -47t48 -32.5t58.5 -14h695v424q0 31 -12 58.5t-32.5 48t-48 32.5t-58.5 12h-695v-143h629v-289h-412v77z" />
<glyph unicode="|" horiz-adv-x="320" d="M269 -105h-218v792h218v-792z" />
<glyph unicode="}" horiz-adv-x="948" d="M680 355h-289v-134h355q31 0 58.5 12t48 32t32.5 47.5t12 58.5v53q0 31 -12 58.5t-32.5 48t-48 32.5t-58.5 12h-561q-28 -3 -52.5 -16t-42.5 -33.5t-28.5 -46.5t-10.5 -55v-273q0 -31 12 -58.5t32.5 -48t48 -32.5t58.5 -12h695v143h-629v289h412v-77z" />
<glyph unicode="~" horiz-adv-x="597" d="M298 355h-170l-102 -138h159l54 81l60 -81h170l102 138h-159l-54 -81z" />
<glyph horiz-adv-x="232" />
<glyph unicode="&#xa1;" horiz-adv-x="314" d="M263 360v-360h-212v360h212zM263 580v-143h-212v143h212z" />
<glyph unicode="&#xa2;" horiz-adv-x="948" d="M597 -107v107h300v143h-300v289h300v143h-300v112h-127v-112h-268q-31 0 -58.5 -12t-48 -32.5t-32.5 -48t-12 -58.5v-273q0 -31 12 -58.5t32.5 -48t48 -32.5t58.5 -12h268v-107h127zM269 143v289h201v-289h-201z" />
<glyph unicode="&#xa3;" horiz-adv-x="1023" d="M749 220v133h-348v79h163v143h-210q-32 0 -62.5 -11t-54.5 -31t-38.5 -47.5t-14.5 -60.5v-56v-8q0 -6 1 -8h-134v-134h134q-1 -2 -1 -8v-6v-55q0 -14 1 -16h-134v-134h921v143h-571v76z" />
<glyph unicode="&#xa4;" horiz-adv-x="948" d="M569 501l76 74h252l-167 -162q3 -11 3 -22v-202q0 -19 -4 -27l168 -162h-252l-82 79h-178l-82 -79h-252l173 167q-1 5 -1.5 10.5t-0.5 11.5v202v8q0 7 1 9l-172 167h252l76 -74h190zM563 193v194h-172v-194h172z" />
<glyph unicode="&#xa5;" d="M842 -53v95h-259v32h259v95h-259v37h161q31 0 59 12t49 32t33.5 47.5t12.5 59.5v218h-219v-226h-410v226h-218v-218q0 -32 12 -59.5t32.5 -47.5t48 -32t59.5 -12h162v-37h-261v-95h261v-32h-261v-95h261v-115h218v115h259z" />
<glyph unicode="&#xa6;" horiz-adv-x="320" d="M269 -170h-218v922h218v-922z" />
<glyph unicode="&#xa7;" horiz-adv-x="948" d="M680 77v-77h-629v-143h695q31 0 58.5 12t48 32.5t32.5 48t12 58.5v53q0 23 -7 44t-19 39q12 18 19 39.5t7 44.5v53q0 31 -12 58.5t-32.5 47.5t-48 32t-58.5 12h-478v78h629v143h-695q-31 0 -58.5 -12t-48 -32.5t-32.5 -48t-12 -58.5v-53q0 -47 25 -84q-25 -37 -25 -83 v-53q0 -31 12 -58.5t32.5 -48t48 -32.5t58.5 -12h478zM268 289h412v-69h-412v69z" />
<glyph unicode="&#xa8;" horiz-adv-x="536" d="M51 548h162v104h-162v-104zM485 652h-162v-104h162v104z" />
<glyph unicode="&#xa9;" horiz-adv-x="285" d="M143 654q-18 0 -34.5 -7.5t-29.5 -20t-20.5 -29t-7.5 -34.5q0 -23 13 -45q9 -12 15 -18t18 -15q11 -5 23 -8.5t23 -3.5q27 0 48 15.5t29 29.5q6 13 10 24t4 21q0 22 -14 45q-5 10 -12.5 18t-21.5 17q-21 8 -31 9.5t-12 1.5zM143 640h3q13 0 26.5 -6.5t23.5 -16.5 t16.5 -23.5t6.5 -26.5v-4q0 -17 -11 -36t-28 -29q-19 -10 -37 -10h-2q-5 0 -16 2t-21 8q-19 12 -27 29q-10 16 -10 36q0 23 10 39q23 38 66 38zM172 550q-8 -23 -30 -23q-31 0 -31 36q0 39 32 39q17 0 26 -19l15 4q-7 28 -41 28q-48 0 -48 -52t48 -52q34 0 43 34z" />
<glyph unicode="&#xaa;" d="M681 235h-290v135h337q30 0 60.5 -12t55 -32t39.5 -48t15 -59v-69q0 -33 -14.5 -60.5t-38.5 -47.5t-54.5 -31t-62.5 -11h-677v575h218v-432h412v92z" />
<glyph unicode="&#xab;" horiz-adv-x="530" d="M479 77l-203 171v97l203 170v-126l-112 -90l112 -97v-125zM254 77l-203 171v97l203 170v-126l-112 -90l112 -97v-125z" />
<glyph unicode="&#xac;" horiz-adv-x="567" d="M516 103v250h-465v-133h271v-117h194z" />
<glyph unicode="&#xad;" horiz-adv-x="436" d="M385 220v134h-334v-134h334z" />
<glyph unicode="&#xae;" horiz-adv-x="285" d="M143 652h-2q-17 0 -33 -7t-29 -19t-20.5 -29t-7.5 -36q0 -25 12 -46q29 -44 80 -44h2q7 0 18 3t22 9t20.5 14t13.5 18q7 13 11 24.5t4 21.5q0 21 -13.5 44.5t-34.5 33.5q-19 13 -43 13zM143 637h3q13 0 26 -6t23.5 -16.5t16.5 -23.5t6 -27l1 -3l-2.5 -11.5t-9.5 -25.5 q-9 -17 -27.5 -27.5t-36.5 -10.5h-3q-8 0 -19 4.5t-21 10.5t-17 12.5t-7 10.5q-7 14 -8.5 23.5t-1.5 12.5v1q0 18 11 38q23 38 66 38zM103 511h15v41h10q7 0 11 -4q4 -2 18 -21l7 -16h20l-12 19q-8 12 -11.5 16.5t-11.5 8.5q29 2 29 28q0 5 -6 14q-2 2 -4.5 3.5t-6.5 3.5 q-5 5 -26 5h-32v-98zM118 564v31h33q10 -6 10 -14t-5 -12.5t-19 -4.5h-19z" />
<glyph unicode="&#xaf;" horiz-adv-x="690" d="M51 575v-86h588v86h-588z" />
<glyph unicode="&#xb0;" horiz-adv-x="264" d="M164 584h-64v32h64v-32zM51 548h162v104h-162v-104z" />
<glyph unicode="&#xb1;" horiz-adv-x="567" d="M216 169h134v136h166v134h-166v135h-134v-135h-165v-134h165v-136zM516 0v134h-465v-134h465z" />
<glyph unicode="&#xb2;" horiz-adv-x="520" d="M51 308h418v93h-281v33h189q18 0 34 7t28.5 18.5t20.5 27t9 33.5v42q0 18 -7.5 34.5t-20 28.5t-29.5 19.5t-35 7.5h-326v-93h280v-32h-189q-38 0 -64.5 -26t-26.5 -64v-129z" />
<glyph unicode="&#xb3;" horiz-adv-x="520" d="M106 434h225v-33h-280v-93h326q18 0 35 7.5t29.5 19.5t20 28.5t7.5 34.5v42q-1 20 -13 40q12 20 13 40v42q0 18 -7.5 34.5t-20 28.5t-29.5 19.5t-35 7.5h-326v-93h280v-33h-225v-92z" />
<glyph unicode="&#xb4;" horiz-adv-x="299" d="M115 652h158l-102 -105h-145z" />
<glyph unicode="&#xb5;" d="M269 143h410v432h218v-424q0 -32 -12 -59.5t-32.5 -47.5t-48.5 -32t-59 -12h-695v575h219v-432z" />
<glyph unicode="&#xb6;" horiz-adv-x="854" d="M579 436h-103v-592h-217v367h-94q-49 14 -81.5 53.5t-32.5 91.5v68q0 31 12.5 59t34 48t49.5 32t60 12h596v-730h-224v591z" />
<glyph unicode="&#xb7;" horiz-adv-x="298" d="M247 220v134h-196v-134h196z" />
<glyph unicode="&#xb8;" horiz-adv-x="238" d="M-102 -83v-108h200l89 193h-137l-35 -85h-117z" />
<glyph unicode="&#xb9;" horiz-adv-x="287" d="M144 652h-93v-93h47v-251h138v254q0 18 -7.5 34.5t-20 28.5t-29.5 19.5t-35 7.5z" />
<glyph unicode="&#xba;" horiz-adv-x="520" d="M377 652q18 0 35 -7.5t29.5 -19.5t20 -28.5t7.5 -34.5v-164q0 -19 -7.5 -35.5t-20 -28.5t-29.5 -19t-35 -7h-235q-18 0 -34.5 7t-29 19t-20 28.5t-7.5 35.5v164q0 38 26.5 64t64.5 26h235zM331 401v158h-143v-158h143z" />
<glyph unicode="&#xbb;" horiz-adv-x="530" d="M51 77l203 171v97l-203 170v-126l112 -90l-112 -97v-125zM276 77l203 171v97l-203 170v-126l112 -90l-112 -97v-125z" />
<glyph unicode="&#xbc;" horiz-adv-x="1034" d="M138 0h201l330 575h-204zM144 574h-93v-93h47v-251h138v254q0 18 -7.5 34.5t-20 28.5t-29.5 19.5t-35 7.5zM846 344v-124h-144v124h-137v-217h281v-127h137v344h-137z" />
<glyph unicode="&#xbd;" horiz-adv-x="1034" d="M138 0h201l330 575h-204zM565 0h418v93h-281v33h189q18 0 34 7t28.5 18.5t20.5 27t9 33.5v42q0 18 -7.5 34.5t-20 28.5t-29.5 19.5t-35 7.5h-326v-93h280v-32h-189q-38 0 -64.5 -26t-26.5 -64v-129zM144 574h-93v-93h47v-251h138v254q0 18 -7.5 34.5t-20 28.5t-29.5 19.5 t-35 7.5z" />
<glyph unicode="&#xbe;" horiz-adv-x="1226" d="M330 0h201l330 575h-204zM1038 344v-124h-144v124h-137v-217h281v-127h137v344h-137zM106 356h225v-33h-280v-93h326q18 0 35 7.5t29.5 19.5t20 28.5t7.5 34.5v42q-1 20 -13 40q12 20 13 40v42q0 18 -7.5 34.5t-20 28.5t-29.5 19.5t-35 7.5h-326v-93h280v-33h-225v-92z " />
<glyph unicode="&#xbf;" horiz-adv-x="948" d="M752 355q0 -31 -12 -56t-32.5 -42t-48 -26.5t-58.5 -9.5h-333v-78h629v-143h-695q-31 0 -58.5 12t-48 32.5t-32.5 48t-12 58.5v53q0 31 12 58.5t32.5 48t48 32.5t58.5 12h550zM752 575v-143h-212v143h212z" />
<glyph unicode="&#xc0;" d="M492 744h-158l102 -105h145zM681 306h-290v-134h290v-172h217v430q0 30 -12.5 56.5t-33 46t-47.5 31t-57 11.5h-546q-31 0 -58.5 -12t-48 -32.5t-32.5 -48t-12 -58.5v-424h218v432h412v-126z" />
<glyph unicode="&#xc1;" d="M367 639h145l102 105h-158zM681 306h-290v-134h290v-172h217v430q0 30 -12.5 56.5t-33 46t-47.5 31t-57 11.5h-546q-31 0 -58.5 -12t-48 -32.5t-32.5 -48t-12 -58.5v-424h218v432h412v-126z" />
<glyph unicode="&#xc2;" d="M587 744h-226l-102 -105h158l57 63l57 -63h158zM681 306h-290v-134h290v-172h217v430q0 30 -12.5 56.5t-33 46t-47.5 31t-57 11.5h-546q-31 0 -58.5 -12t-48 -32.5t-32.5 -48t-12 -58.5v-424h218v432h412v-126z" />
<glyph unicode="&#xc3;" d="M472 744h-169l-102 -105h158l54 62l60 -62h169l102 105h-158l-54 -62zM681 306h-290v-134h290v-172h217v430q0 30 -12.5 56.5t-33 46t-47.5 31t-57 11.5h-546q-31 0 -58.5 -12t-48 -32.5t-32.5 -48t-12 -58.5v-424h218v432h412v-126z" />
<glyph unicode="&#xc4;" d="M257 639h162v104h-162v-104zM691 743h-162v-104h162v104zM681 306h-290v-134h290v-172h217v430q0 30 -12.5 56.5t-33 46t-47.5 31t-57 11.5h-546q-31 0 -58.5 -12t-48 -32.5t-32.5 -48t-12 -58.5v-424h218v432h412v-126z" />
<glyph unicode="&#xc5;" d="M681 306h-290v-134h290v-172h217v430q0 30 -12.5 56.5t-33 46t-47.5 31t-57 11.5h-546q-31 0 -58.5 -12t-48 -32.5t-32.5 -48t-12 -58.5v-424h218v432h412v-126zM508 675h-64v32h64v-32zM395 639h162v104h-162v-104z" />
<glyph unicode="&#xc6;" horiz-adv-x="1578" d="M681 306h-290v-134h290v-172h846v143h-628v289h628v143h-1325q-31 0 -58.5 -12t-48 -32.5t-32.5 -48t-12 -58.5v-424h218v432h412v-126zM1483 220v134h-462v-134h462z" />
<glyph unicode="&#xc7;" d="M354 -83v-108h200l89 191h254v143h-628v289h628v143h-695q-31 0 -58.5 -12t-48 -32.5t-32.5 -48t-12 -58.5v-273q0 -31 12 -58.5t32.5 -48t48 -32.5t58.5 -12h304l-35 -83h-117z" />
<glyph unicode="&#xc8;" horiz-adv-x="948" d="M492 744h-158l102 -105h145zM853 220v134h-462v-134h462zM269 143v289h628v143h-695q-31 0 -58.5 -12t-48 -32.5t-32.5 -48t-12 -58.5v-273q0 -31 12 -58.5t32.5 -48t48 -32.5t58.5 -12h695v143h-628z" />
<glyph unicode="&#xc9;" horiz-adv-x="948" d="M367 639h145l102 105h-158zM853 220v134h-462v-134h462zM269 143v289h628v143h-695q-31 0 -58.5 -12t-48 -32.5t-32.5 -48t-12 -58.5v-273q0 -31 12 -58.5t32.5 -48t48 -32.5t58.5 -12h695v143h-628z" />
<glyph unicode="&#xca;" horiz-adv-x="948" d="M587 744h-226l-102 -105h158l57 63l57 -63h158zM853 220v134h-462v-134h462zM269 143v289h628v143h-695q-31 0 -58.5 -12t-48 -32.5t-32.5 -48t-12 -58.5v-273q0 -31 12 -58.5t32.5 -48t48 -32.5t58.5 -12h695v143h-628z" />
<glyph unicode="&#xcb;" horiz-adv-x="948" d="M257 639h162v104h-162v-104zM691 743h-162v-104h162v104zM853 220v134h-462v-134h462zM269 143v289h628v143h-695q-31 0 -58.5 -12t-48 -32.5t-32.5 -48t-12 -58.5v-273q0 -31 12 -58.5t32.5 -48t48 -32.5t58.5 -12h695v143h-628z" />
<glyph unicode="&#xcc;" horiz-adv-x="943" d="M50 0h841v143h-311v289h312v143h-841v-143h311v-289h-312v-143zM582 639l-89 105h-158l102 -105h145z" />
<glyph unicode="&#xcd;" horiz-adv-x="943" d="M505 639l102 105h-158l-89 -105h145zM892 143h-312v289h311v143h-841v-143h312v-289h-311v-143h841v143z" />
<glyph unicode="&#xce;" horiz-adv-x="943" d="M50 0h841v143h-311v289h312v143h-841v-143h311v-289h-312v-143zM584 744h-226l-102 -105h158l57 63l57 -63h158z" />
<glyph unicode="&#xcf;" horiz-adv-x="943" d="M50 0h841v143h-311v289h312v143h-841v-143h311v-289h-312v-143zM254 639h162v104h-162v-104zM687 743h-162v-104h162v104z" />
<glyph unicode="&#xd0;" horiz-adv-x="1072" d="M51 341v-125h123v-216h696q31 0 58.5 12t48 32.5t32.5 48t12 58.5v273q0 31 -12 58.5t-32.5 48t-48 32.5t-58.5 12h-696v-143h630v-289h-413v74h117v124h-457z" />
<glyph unicode="&#xd1;" d="M466 744h-169l-102 -105h158l54 62l60 -62h169l102 105h-158l-54 -62zM269 432h412v-432h217v430q0 30 -12.5 56.5t-33 46t-47.5 31t-57 11.5h-697v-575h218v432z" />
<glyph unicode="&#xd2;" d="M492 744h-158l102 -105h145zM269 432h410v-289h-410v289zM204 575q-31 0 -59 -12.5t-49 -33t-33.5 -48t-12.5 -57.5v-273q0 -32 12.5 -59.5t33.5 -47.5t49 -32t59 -12h541q31 0 59 12t48.5 32t32.5 47.5t12 59.5v273q0 31 -12 59t-32.5 48t-48.5 32t-59 12h-541z" />
<glyph unicode="&#xd3;" d="M203 575q-32 0 -59.5 -12t-48 -32t-32.5 -48t-12 -59v-273q0 -32 12 -59.5t32.5 -47.5t48 -32t59.5 -12h541q31 0 59 12t49 32t33.5 47.5t12.5 59.5v273q0 30 -12.5 57.5t-33.5 48t-49 33t-59 12.5h-541zM679 143h-410v289h410v-289zM367 639h145l102 105h-158z" />
<glyph unicode="&#xd4;" d="M587 744h-226l-102 -105h158l57 63l57 -63h158zM203 575q-32 0 -59.5 -12t-48 -32t-32.5 -48t-12 -59v-273q0 -32 12 -59.5t32.5 -47.5t48 -32t59.5 -12h541q31 0 59 12t49 32t33.5 47.5t12.5 59.5v273q0 30 -12.5 57.5t-33.5 48t-49 33t-59 12.5h-541zM679 143h-410v289 h410v-289z" />
<glyph unicode="&#xd5;" d="M203 575q-32 0 -59.5 -12t-48 -32t-32.5 -48t-12 -59v-273q0 -32 12 -59.5t32.5 -47.5t48 -32t59.5 -12h541q31 0 59 12t49 32t33.5 47.5t12.5 59.5v273q0 30 -12.5 57.5t-33.5 48t-49 33t-59 12.5h-541zM679 143h-410v289h410v-289zM472 744h-169l-102 -105h158l54 62 l60 -62h169l102 105h-158l-54 -62z" />
<glyph unicode="&#xd6;" d="M257 639h162v104h-162v-104zM203 575q-32 0 -59.5 -12t-48 -32t-32.5 -48t-12 -59v-273q0 -32 12 -59.5t32.5 -47.5t48 -32t59.5 -12h541q31 0 59 12t49 32t33.5 47.5t12.5 59.5v273q0 30 -12.5 57.5t-33.5 48t-49 33t-59 12.5h-541zM679 143h-410v289h410v-289zM691 743 h-162v-104h162v104z" />
<glyph unicode="&#xd7;" horiz-adv-x="476" d="M26 169l94 -94l118 117l117 -117l95 94l-118 118l117 116l-95 95l-116 -117l-117 117l-95 -95l117 -116z" />
<glyph unicode="&#xd8;" d="M745 575q31 0 59 -12t48.5 -32t32.5 -48t12 -59v-273q0 -32 -12 -58.5t-32.5 -46t-48.5 -31.5t-59 -15h-534q-33 0 -62 12t-51 32t-35 47.5t-13 59.5v273q0 30 14 57.5t36.5 48t50 33t53.5 12.5h541zM500 432l166 -289h13v289h-179zM448 143l-166 289h-13v-289h179z" />
<glyph unicode="&#xd9;" d="M492 744h-158l102 -105h145zM679 143h-410v432h-218v-424q0 -32 12 -59.5t32.5 -47.5t48 -32t59.5 -12h695v575h-219v-432z" />
<glyph unicode="&#xda;" d="M367 639h145l102 105h-158zM679 143h-410v432h-218v-424q0 -32 12 -59.5t32.5 -47.5t48 -32t59.5 -12h695v575h-219v-432z" />
<glyph unicode="&#xdb;" d="M587 744h-226l-102 -105h158l57 63l57 -63h158zM679 143h-410v432h-218v-424q0 -32 12 -59.5t32.5 -47.5t48 -32t59.5 -12h695v575h-219v-432z" />
<glyph unicode="&#xdc;" d="M257 639h162v104h-162v-104zM691 743h-162v-104h162v104zM679 143h-410v432h-218v-424q0 -32 12 -59.5t32.5 -47.5t48 -32t59.5 -12h695v575h-219v-432z" />
<glyph unicode="&#xdd;" horiz-adv-x="948" d="M680 575v-221h-411v221h-218v-204q0 -31 12 -58.5t32.5 -48t48 -32.5t58.5 -12h478v-77h-629v-143h695q31 0 58.5 12t48 32.5t32.5 48t12 58.5v424h-217zM367 639h145l102 105h-158z" />
<glyph unicode="&#xde;" d="M51 0h218v328h412v-92h-290v-135h337q30 0 60.5 12t55 32t39.5 47.5t15 59.5v69q0 33 -14.5 60.5t-38.5 47.5t-54.5 31t-62.5 11h-459v104h-218v-575z" />
<glyph unicode="&#xdf;" horiz-adv-x="951" d="M203 575q-32 0 -59.5 -12t-48 -32t-32.5 -48t-12 -59v-529h220v537h412v-79h-316v-133h316v-77h-317v-143h364q32 0 62.5 11t54.5 31t38.5 47.5t14.5 60.5v55q0 20 -8.5 43t-30.5 39q19 16 29 39t10 43v56q0 33 -14.5 60.5t-38.5 47.5t-54.5 31t-62.5 11h-527z" />
<glyph unicode="&#xe0;" d="M492 744h-158l102 -105h145zM269 306v126h412v-126h-412zM269 172h412v-172h217v430q0 30 -12.5 56.5t-33 46t-47.5 31t-57 11.5h-546q-31 0 -58.5 -12t-48 -32.5t-32.5 -48t-12 -58.5v-424h218v172z" />
<glyph unicode="&#xe1;" d="M367 639h145l102 105h-158zM269 306v126h412v-126h-412zM269 172h412v-172h217v430q0 30 -12.5 56.5t-33 46t-47.5 31t-57 11.5h-546q-31 0 -58.5 -12t-48 -32.5t-32.5 -48t-12 -58.5v-424h218v172z" />
<glyph unicode="&#xe2;" d="M587 744h-226l-102 -105h158l57 63l57 -63h158zM269 306v126h412v-126h-412zM269 172h412v-172h217v430q0 30 -12.5 56.5t-33 46t-47.5 31t-57 11.5h-546q-31 0 -58.5 -12t-48 -32.5t-32.5 -48t-12 -58.5v-424h218v172z" />
<glyph unicode="&#xe3;" d="M472 744h-169l-102 -105h158l54 62l60 -62h169l102 105h-158l-54 -62zM269 306v126h412v-126h-412zM269 172h412v-172h217v430q0 30 -12.5 56.5t-33 46t-47.5 31t-57 11.5h-546q-31 0 -58.5 -12t-48 -32.5t-32.5 -48t-12 -58.5v-424h218v172z" />
<glyph unicode="&#xe4;" d="M257 639h162v104h-162v-104zM691 743h-162v-104h162v104zM269 306v126h412v-126h-412zM269 172h412v-172h217v430q0 30 -12.5 56.5t-33 46t-47.5 31t-57 11.5h-546q-31 0 -58.5 -12t-48 -32.5t-32.5 -48t-12 -58.5v-424h218v172z" />
<glyph unicode="&#xe5;" d="M508 675h-64v32h64v-32zM269 306v126h412v-126h-412zM269 172h412v-172h217v430q0 30 -12.5 56.5t-33 46t-47.5 31t-57 11.5h-546q-31 0 -58.5 -12t-48 -32.5t-32.5 -48t-12 -58.5v-424h218v172zM395 639h162v104h-162v-104z" />
<glyph unicode="&#xe6;" horiz-adv-x="1578" d="M1483 220v134h-584v78h628v143h-1325q-31 0 -58.5 -12t-48 -32.5t-32.5 -48t-12 -58.5v-424h218v172h412v-172h846v143h-628v77h584zM681 306h-412v126h412v-126z" />
<glyph unicode="&#xe7;" d="M354 -83v-108h200l89 191h254v143h-628v289h628v143h-695q-31 0 -58.5 -12t-48 -32.5t-32.5 -48t-12 -58.5v-273q0 -31 12 -58.5t32.5 -48t48 -32.5t58.5 -12h304l-35 -83h-117z" />
<glyph unicode="&#xe8;" horiz-adv-x="948" d="M492 744h-158l102 -105h145zM269 143v77h584v134h-584v78h628v143h-695q-31 0 -58.5 -12t-48 -32.5t-32.5 -48t-12 -58.5v-273q0 -31 12 -58.5t32.5 -48t48 -32.5t58.5 -12h695v143h-628z" />
<glyph unicode="&#xe9;" horiz-adv-x="948" d="M367 639h145l102 105h-158zM269 143v77h584v134h-584v78h628v143h-695q-31 0 -58.5 -12t-48 -32.5t-32.5 -48t-12 -58.5v-273q0 -31 12 -58.5t32.5 -48t48 -32.5t58.5 -12h695v143h-628z" />
<glyph unicode="&#xea;" horiz-adv-x="948" d="M587 744h-226l-102 -105h158l57 63l57 -63h158zM269 143v77h584v134h-584v78h628v143h-695q-31 0 -58.5 -12t-48 -32.5t-32.5 -48t-12 -58.5v-273q0 -31 12 -58.5t32.5 -48t48 -32.5t58.5 -12h695v143h-628z" />
<glyph unicode="&#xeb;" horiz-adv-x="948" d="M257 639h162v104h-162v-104zM691 743h-162v-104h162v104zM269 143v77h584v134h-584v78h628v143h-695q-31 0 -58.5 -12t-48 -32.5t-32.5 -48t-12 -58.5v-273q0 -31 12 -58.5t32.5 -48t48 -32.5t58.5 -12h695v143h-628z" />
<glyph unicode="&#xec;" horiz-adv-x="321" d="M270 0v575h-219v-575h219zM279 639l-89 105h-158l102 -105h145z" />
<glyph unicode="&#xed;" horiz-adv-x="321" d="M270 575h-219v-575h219v575zM43 639h145l102 105h-158z" />
<glyph unicode="&#xee;" horiz-adv-x="321" d="M270 575h-219v-575h219v575zM273 744h-226l-102 -105h158l57 63l57 -63h158z" />
<glyph unicode="&#xef;" horiz-adv-x="321" d="M270 575h-219v-575h219v575zM-57 639h162v104h-162v-104zM377 743h-162v-104h162v104z" />
<glyph unicode="&#xf0;" horiz-adv-x="948" d="M339 391h213v41h128v-78h-478q-31 0 -58.5 -12t-48 -32t-32.5 -47.5t-12 -58.5v-53q0 -31 12 -58.5t32.5 -48t48 -32.5t58.5 -12h561q28 3 52.5 16t42.5 33.5t28.5 46.5t10.5 55v273q0 31 -12 58.5t-32.5 48t-48 32.5t-58.5 12h-194v94h-213v-94h-288v-143h288v-41z M680 220v-77h-412v77h412z" />
<glyph unicode="&#xf1;" d="M466 744h-169l-102 -105h158l54 62l60 -62h169l102 105h-158l-54 -62zM269 432h412v-432h217v430q0 30 -12.5 56.5t-33 46t-47.5 31t-57 11.5h-697v-575h218v432z" />
<glyph unicode="&#xf2;" d="M492 744h-158l102 -105h145zM269 432h410v-289h-410v289zM204 575q-31 0 -59 -12.5t-49 -33t-33.5 -48t-12.5 -57.5v-273q0 -32 12.5 -59.5t33.5 -47.5t49 -32t59 -12h541q31 0 59 12t48.5 32t32.5 47.5t12 59.5v273q0 31 -12 59t-32.5 48t-48.5 32t-59 12h-541z" />
<glyph unicode="&#xf3;" d="M203 575q-32 0 -59.5 -12t-48 -32t-32.5 -48t-12 -59v-273q0 -32 12 -59.5t32.5 -47.5t48 -32t59.5 -12h541q31 0 59 12t49 32t33.5 47.5t12.5 59.5v273q0 30 -12.5 57.5t-33.5 48t-49 33t-59 12.5h-541zM679 143h-410v289h410v-289zM367 639h145l102 105h-158z" />
<glyph unicode="&#xf4;" d="M587 744h-226l-102 -105h158l57 63l57 -63h158zM203 575q-32 0 -59.5 -12t-48 -32t-32.5 -48t-12 -59v-273q0 -32 12 -59.5t32.5 -47.5t48 -32t59.5 -12h541q31 0 59 12t49 32t33.5 47.5t12.5 59.5v273q0 30 -12.5 57.5t-33.5 48t-49 33t-59 12.5h-541zM679 143h-410v289 h410v-289z" />
<glyph unicode="&#xf5;" d="M203 575q-32 0 -59.5 -12t-48 -32t-32.5 -48t-12 -59v-273q0 -32 12 -59.5t32.5 -47.5t48 -32t59.5 -12h541q31 0 59 12t49 32t33.5 47.5t12.5 59.5v273q0 30 -12.5 57.5t-33.5 48t-49 33t-59 12.5h-541zM679 143h-410v289h410v-289zM472 744h-169l-102 -105h158l54 62 l60 -62h169l102 105h-158l-54 -62z" />
<glyph unicode="&#xf6;" d="M257 639h162v104h-162v-104zM203 575q-32 0 -59.5 -12t-48 -32t-32.5 -48t-12 -59v-273q0 -32 12 -59.5t32.5 -47.5t48 -32t59.5 -12h541q31 0 59 12t49 32t33.5 47.5t12.5 59.5v273q0 30 -12.5 57.5t-33.5 48t-49 33t-59 12.5h-541zM679 143h-410v289h410v-289zM691 743 h-162v-104h162v104z" />
<glyph unicode="&#xf7;" horiz-adv-x="612" d="M561 220v134h-510v-134h510zM403 39v143h-192v-143h192zM210 393h193v143h-193v-143z" />
<glyph unicode="&#xf8;" d="M679 432h-410v-289h410v289zM744 575q31 0 59 -12.5t49 -33t33.5 -48t12.5 -57.5v-273q0 -32 -12.5 -59.5t-33.5 -47.5t-49 -32t-59 -12h-541q-32 0 -59.5 12t-48 32t-32.5 47.5t-12 59.5v273q0 31 12 59t32.5 48t48 32t59.5 12h541zM369 219v137h210v-137h-210z" />
<glyph unicode="&#xf9;" d="M492 744h-158l102 -105h145zM679 143h-410v432h-218v-424q0 -32 12 -59.5t32.5 -47.5t48 -32t59.5 -12h541q31 0 59 12t49 32t33.5 47.5t12.5 59.5v424h-219v-432z" />
<glyph unicode="&#xfa;" d="M367 639h145l102 105h-158zM679 143h-410v432h-218v-424q0 -32 12 -59.5t32.5 -47.5t48 -32t59.5 -12h541q31 0 59 12t49 32t33.5 47.5t12.5 59.5v424h-219v-432z" />
<glyph unicode="&#xfb;" d="M587 744h-226l-102 -105h158l57 63l57 -63h158zM679 143h-410v432h-218v-424q0 -32 12 -59.5t32.5 -47.5t48 -32t59.5 -12h541q31 0 59 12t49 32t33.5 47.5t12.5 59.5v424h-219v-432z" />
<glyph unicode="&#xfc;" d="M257 639h162v104h-162v-104zM691 743h-162v-104h162v104zM679 143h-410v432h-218v-424q0 -32 12 -59.5t32.5 -47.5t48 -32t59.5 -12h541q31 0 59 12t49 32t33.5 47.5t12.5 59.5v424h-219v-432z" />
<glyph unicode="&#xfd;" d="M679 349h-410v226h-218v-218q0 -32 12 -59.5t32.5 -47.5t48 -32t59.5 -12h163v-206h218v206h160q31 0 59 12t49 32t33.5 47.5t12.5 59.5v218h-219v-226zM367 639h145l102 105h-158z" />
<glyph unicode="&#xfe;" d="M269 0v101h459q30 0 60.5 12t55 32t39.5 47.5t15 59.5v69q0 33 -14.5 60.5t-38.5 47.5t-54.5 31t-62.5 11h-459v104h-218v-575h218zM681 328v-92h-412v92h412z" />
<glyph unicode="&#xff;" d="M257 639h162v104h-162v-104zM691 743h-162v-104h162v104zM679 349h-410v226h-218v-218q0 -32 12 -59.5t32.5 -47.5t48 -32t59.5 -12h163v-206h218v206h160q31 0 59 12t49 32t33.5 47.5t12.5 59.5v218h-219v-226z" />
<glyph unicode="&#x152;" horiz-adv-x="1577" d="M1526 143h-628v289h628v143h-1324q-31 0 -58.5 -12t-48 -32.5t-32.5 -48t-12 -58.5v-273q0 -31 12 -58.5t32.5 -48t48 -32.5t58.5 -12h1324v143zM269 143v289h411v-289h-411zM1020 220h462v134h-462v-134z" />
<glyph unicode="&#x153;" horiz-adv-x="1577" d="M1526 143h-628v77h584v134h-584v78h628v143h-1324q-31 0 -58.5 -12t-48 -32.5t-32.5 -48t-12 -58.5v-273q0 -31 12 -58.5t32.5 -48t48 -32.5t58.5 -12h1324v143zM269 143v289h411v-289h-411z" />
<glyph unicode="&#x178;" horiz-adv-x="948" d="M680 575v-221h-411v221h-218v-204q0 -31 12 -58.5t32.5 -48t48 -32.5t58.5 -12h478v-77h-629v-143h695q31 0 58.5 12t48 32.5t32.5 48t12 58.5v424h-217zM257 639h162v104h-162v-104zM691 743h-162v-104h162v104z" />
<glyph unicode="&#x2c6;" horiz-adv-x="490" d="M358 652h-226l-102 -105h158l57 63l57 -63h158z" />
<glyph unicode="&#x2dc;" horiz-adv-x="603" d="M301 652h-169l-102 -105h158l54 62l60 -62h169l102 105h-158l-54 -62z" />
<glyph unicode="&#x2000;" horiz-adv-x="376" />
<glyph unicode="&#x2001;" horiz-adv-x="752" />
<glyph unicode="&#x2002;" horiz-adv-x="376" />
<glyph unicode="&#x2003;" horiz-adv-x="752" />
<glyph unicode="&#x2004;" horiz-adv-x="250" />
<glyph unicode="&#x2005;" horiz-adv-x="188" />
<glyph unicode="&#x2006;" horiz-adv-x="125" />
<glyph unicode="&#x2007;" horiz-adv-x="125" />
<glyph unicode="&#x2008;" horiz-adv-x="94" />
<glyph unicode="&#x2009;" horiz-adv-x="150" />
<glyph unicode="&#x200a;" horiz-adv-x="41" />
<glyph unicode="&#x2010;" horiz-adv-x="549" d="M498 220v134h-447v-134h447z" />
<glyph unicode="&#x2011;" horiz-adv-x="549" d="M498 220v134h-447v-134h447z" />
<glyph unicode="&#x2012;" horiz-adv-x="549" d="M498 220v134h-447v-134h447z" />
<glyph unicode="&#x2013;" horiz-adv-x="549" d="M498 220v134h-447v-134h447z" />
<glyph unicode="&#x2014;" horiz-adv-x="612" d="M561 220v134h-510v-134h510z" />
<glyph unicode="&#x2018;" horiz-adv-x="314" d="M263 342h-212v143l115 91h97v-234z" />
<glyph unicode="&#x2019;" horiz-adv-x="314" d="M51 575h212v-143l-115 -91h-97v234z" />
<glyph unicode="&#x201a;" horiz-adv-x="314" d="M51 143h212v-143l-115 -91h-97v234z" />
<glyph unicode="&#x201c;" horiz-adv-x="580" d="M262 342h-211v143l115 91h96v-234zM529 342h-211v143l115 91h96v-234z" />
<glyph unicode="&#x201d;" horiz-adv-x="580" d="M318 575h211v-143l-115 -91h-96v234zM51 575h211v-143l-115 -91h-96v234z" />
<glyph unicode="&#x201e;" horiz-adv-x="584" d="M321 143h212v-143l-115 -91h-97v234zM51 143h212v-143l-115 -91h-97v234z" />
<glyph unicode="&#x2022;" d="M203 575q-32 0 -59.5 -12t-48 -32t-32.5 -48t-12 -59v-273q0 -32 12 -59.5t32.5 -47.5t48 -32t59.5 -12h541q31 0 59 12t49 32t33.5 47.5t12.5 59.5v273q0 30 -12.5 57.5t-33.5 48t-49 33t-59 12.5h-541z" />
<glyph unicode="&#x2026;" horiz-adv-x="941" d="M890 0v143h-212v-143h212zM364 0h213v143h-213v-143zM51 0h213v143h-213v-143z" />
<glyph unicode="&#x202f;" horiz-adv-x="150" />
<glyph unicode="&#x2039;" horiz-adv-x="305" d="M254 77l-203 171v97l203 170v-126l-112 -90l112 -97v-125z" />
<glyph unicode="&#x203a;" horiz-adv-x="305" d="M51 77l203 171v97l-203 170v-126l111 -90l-111 -97v-125z" />
<glyph unicode="&#x205f;" horiz-adv-x="188" />
<glyph unicode="&#x20ac;" horiz-adv-x="1059" d="M411 432h597v143h-664q-31 0 -58.5 -12t-48 -32.5t-32.5 -48t-12 -58.5v-273q0 -31 12 -58.5t32.5 -48t48 -32.5t58.5 -12h664v143h-597v289zM765 303v95h-714v-95h714zM765 176v95h-714v-95h714z" />
<glyph unicode="&#x2122;" horiz-adv-x="1093" d="M471 654v-71h-150v-216h-121v216h-149v71h420zM967 654q31 0 53 -22.5t22 -53.5v-212h-109v216h-103v-216h-109v216h-103v-216h-109v288h458z" />
<glyph unicode="&#x25fc;" horiz-adv-x="575" d="M0 575h575v-575h-575v575z" />
</font>
</defs>
</svg>
